Page MenuHome
Paste P1101

Advanced MediaInfo of ToS-4k-1920.mov
ActivePublic

Authored by Christopher_Anderssarian on Sat, Sep 14, 10:46 PM.
General
Count : 330
Count of stream of this kind : 1
Kind of stream : General
Kind of stream : General
Stream identifier : 0
Count of video streams : 1
Count of audio streams : 1
Video_Format_List : AVC
Video_Format_WithHint_List : AVC
Codecs Video : AVC
Video_Language_List : English
Audio_Format_List : AAC
Audio_Format_WithHint_List : AAC
Audio codecs : AAC LC
Audio_Language_List : English
Complete name : T:\Large Temp\ToS-4k-1920.mov
Folder name : T:\Large Temp
File name : ToS-4k-1920.mov
File name : ToS-4k-1920
File extension : mov
Format : MPEG-4
Format : MPEG-4
Format/Extensions usually used : mov mp4 m4v m4a m4b m4p 3ga 3gpa 3gpp 3gp 3gpp2 3g2 k3g jpm jpx mqv ismv isma ismt f4a f4b f4v
Commercial name : MPEG-4
Format profile : QuickTime
Internet media type : video/mp4
Codec ID : qt
Codec ID : qt 0000.02 (qt )
Codec ID/Url : http://www.apple.com/quicktime/download/standalone.html
CodecID_Version : 0000.02
CodecID_Compatible : qt
Codec : MPEG-4
Codec : MPEG-4
Codec/Extensions usually used : mov mp4 m4v m4a m4b m4p 3ga 3gpa 3gpp 3gp 3gpp2 3g2 k3g jpm jpx mqv ismv isma ismt f4a f4b f4v
File size : 738876331
File size : 705 MiB
File size : 705 MiB
File size : 705 MiB
File size : 705 MiB
File size : 704.6 MiB
Duration : 734167
Duration : 12 min 14 s
Duration : 12 min 14 s 167 ms
Duration : 12 min 14 s
Duration : 00:12:14.167
Duration : 00:12:14:04
Duration : 00:12:14.167 (00:12:14:04)
Overall bit rate mode : VBR
Overall bit rate mode : Variable
Overall bit rate : 8051316
Overall bit rate : 8 051 kb/s
Frame rate : 24.000
Frame rate : 24.000 FPS
Frame count : 17620
Stream size : 558661
Stream size : 546 KiB (0%)
Stream size : 546 KiB
Stream size : 546 KiB
Stream size : 546 KiB
Stream size : 545.6 KiB
Stream size : 546 KiB (0%)
Proportion of this stream : 0.00076
HeaderSize : 28
DataSize : 738317678
FooterSize : 558625
IsStreamable : No
File creation date : UTC 2019-09-14 20:14:52.860
File creation date (local) : 2019-09-14 21:14:52.860
File last modification date : UTC 2019-09-14 20:16:54.100
File last modification date (local) : 2019-09-14 21:16:54.100
Writing application : Lavf54.29.104
Writing application : Lavf54.29.104
Video
Count : 344
Count of stream of this kind : 1
Kind of stream : Video
Kind of stream : Video
Stream identifier : 0
StreamOrder : 0
ID : 1
ID : 1
Format : AVC
Format/Info : Advanced Video Codec
Format/Url : http://developers.videolan.org/x264.html
Commercial name : AVC
Format profile : High@L4
Format settings : 4 Ref Frames
Format settings, CABAC : No
Format settings, CABAC : No
Format settings, RefFrames : 4
Format settings, RefFrames : 4 frames
Format settings, GOP : M=4, N=18
Internet media type : video/H264
Codec ID : avc1
Codec ID/Info : Advanced Video Coding
Codec : AVC
Codec : AVC
Codec/Family : AVC
Codec/Info : Advanced Video Codec
Codec/Url : http://developers.videolan.org/x264.html
Codec/CC : avc1
Codec profile : High@L4
Codec settings : 4 Ref Frames
Codec settings, CABAC : No
Codec_Settings_RefFrames : 4
Duration : 734167
Duration : 12 min 14 s
Duration : 12 min 14 s 167 ms
Duration : 12 min 14 s
Duration : 00:12:14.167
Duration : 00:12:14:04
Duration : 00:12:14.167 (00:12:14:04)
Bit rate : 8000000
Bit rate : 8 000 kb/s
Width : 1920
Width : 1 920 pixels
Height : 800
Height : 800 pixels
Sampled_Width : 1920
Sampled_Height : 800
Pixel aspect ratio : 1.000
Display aspect ratio : 2.400
Display aspect ratio : 2.40:1
Rotation : 0.000
Frame rate mode : CFR
Frame rate mode : Constant
FrameRate_Mode_Original : VFR
Frame rate : 24.000
Frame rate : 24.000 FPS
Frame count : 17620
Resolution : 8
Resolution : 8 bits
Colorimetry : 4:2:0
Color space : YUV
Chroma subsampling : 4:2:0
Chroma subsampling : 4:2:0
Bit depth : 8
Bit depth : 8 bits
Scan type : Progressive
Scan type : Progressive
Interlacement : PPF
Interlacement : Progressive
Bits/(Pixel*Frame) : 0.217
Stream size : 721541563
Stream size : 688 MiB (98%)
Stream size : 688 MiB
Stream size : 688 MiB
Stream size : 688 MiB
Stream size : 688.1 MiB
Stream size : 688 MiB (98%)
Proportion of this stream : 0.97654
Writing library : x264 - core 118
Writing library : x264 core 118
Encoded_Library_Name : x264
Encoded_Library_Version : core 118
Encoding settings : cabac=0 / ref=2 / deblock=1:0:0 / analyse=0x3:0x113 / me=dia / subme=6 / psy=1 / psy_rd=1.00:0.00 / mixed_ref=1 / me_range=16 / chroma_me=1 / trellis=0 / 8x8dct=1 / cqm=0 / deadzone=21,11 / fast_pskip=1 / chroma_qp_offset=-2 / threads=1 / sliced_threads=0 / nr=0 / decimate=1 / interlaced=0 / bluray_compat=0 / constrained_intra=0 / bframes=3 / b_pyramid=2 / b_adapt=1 / b_bias=0 / direct=1 / weightb=1 / open_gop=1 / weightp=2 / keyint=18 / keyint_min=10 / scenecut=40 / intra_refresh=0 / rc_lookahead=18 / rc=abr / mbtree=1 / bitrate=8000 / ratetol=1.0 / qcomp=0.60 / qpmin=10 / qpmax=51 / qpstep=4 / vbv_maxrate=9000 / vbv_bufsize=1835 / nal_hrd=none / ip_ratio=1.40 / aq=1:1.00
Language : en
Language : English
Language : English
Language : en
Language : eng
Language : en
Audio
Count : 275
Count of stream of this kind : 1
Kind of stream : Audio
Kind of stream : Audio
Stream identifier : 0
StreamOrder : 1
ID : 2
ID : 2
Format : AAC
Format/Info : Advanced Audio Codec
Commercial name : AAC
Format profile : LC
Format settings, SBR : No (Explicit)
Format settings, SBR : No (Explicit)
Codec ID : mp4a-40-2
Codec : AAC LC
Codec : AAC LC
Codec/Family : AAC
Codec/CC : 40
Duration : 734123
Duration : 12 min 14 s
Duration : 12 min 14 s 123 ms
Duration : 12 min 14 s
Duration : 00:12:14.123
Duration : 00:12:15:11
Duration : 00:12:14.123 (00:12:15:11)
Bit rate mode : VBR
Bit rate mode : Variable
Bit rate : 182815
Bit rate : 183 kb/s
Maximum bit rate : 192000
Maximum bit rate : 192 kb/s
Channel(s) : 2
Channel(s) : 2 channels
Channel positions : Front: L R
Channel positions : 2/0/0
ChannelLayout : L R
Samples per frame : 1024
Sampling rate : 44100
Sampling rate : 44.1 kHz
Samples count : 32374824
Frame rate : 43.066
Frame rate : 43.066 FPS (1024 SPF)
Frame count : 31616
Compression mode : Lossy
Compression mode : Lossy
Stream size : 16776107
Stream size : 16.0 MiB (2%)
Stream size : 16 MiB
Stream size : 16 MiB
Stream size : 16.0 MiB
Stream size : 16.00 MiB
Stream size : 16.0 MiB (2%)
Proportion of this stream : 0.02270
Language : en
Language : English
Language : English
Language : en
Language : eng
Language : en
Default : Yes
Default : Yes
Alternate group : 1
Alternate group : 1

Event Timeline