Page MenuHome
Paste P975

t09 Metadata example
ActivePublic

Authored by Christopher Anderssarian (Christopher_Anderssarian) on May 15 2019, 5:32 PM.
General
Unique ID : 324998682704713740701650401530805323569 (0xF48078308B94317255AEBF45D9598731)
Complete name : N:\M\Michael Jackson's This Is It\Michael Jackson's This Is It_t09.mkv
Format : Matroska
Format version : Version 2
File size : 92.9 MiB
Duration : 1 min 43 s
Overall bit rate mode : Variable
Overall bit rate : 7 496 kb/s
Movie name : Michael Jackson's This Is It
Encoded date : UTC 2019-05-15 10:33:28
Writing application : MakeMKV v1.14.2 win(x64-release)
Writing library : libmakemkv v1.14.2 (1.3.5/1.4.7) win(x64-release)
Video
ID : 1
ID in the original source medium : 224 (0xE0)
Format : MPEG Video
Format version : Version 2
Format profile : Main@Main
Format settings : BVOP
Format settings, BVOP : Yes
Format settings, Matrix : Default
Format settings, GOP : M=3, N=12
Format settings, picture structure : Frame
Codec ID : V_MPEG2
Codec ID/Info : MPEG 1 or 2 Video
Duration : 1 min 43 s
Bit rate mode : Variable
Bit rate : 7 041 kb/s
Maximum bit rate : 8 000 kb/s
Width : 720 pixels
Height : 576 pixels
Display aspect ratio : 16:9
Frame rate mode : Constant
Frame rate : 25.000 FPS
Standard : PAL
Color space : YUV
Chroma subsampling : 4:2:0
Bit depth : 8 bits
Scan type : Interlaced
Scan order : Top Field First
Compression mode : Lossy
Bits/(Pixel*Frame) : 0.679
Time code of first frame : 01:05:43:20
Time code source : Group of pictures header
GOP, Open/Closed : Open
GOP, Open/Closed of first frame : Closed
Stream size : 87.2 MiB (94%)
Language : English
Default : No
Forced : No
Original source medium : DVD-Video
Audio
ID : 2
ID in the original source medium : 189 (0xBD)128 (0x80)
Format : AC-3
Format/Info : Audio Coding 3
Codec ID : A_AC3
Duration : 1 min 43 s
Bit rate mode : Constant
Bit rate : 448 kb/s
Channel(s) : 6 channels
Channel positions : Front: L C R, Side: L R, LFE
Sampling rate : 48.0 kHz
Frame rate : 31.250 FPS (1536 SPF)
Bit depth : 16 bits
Compression mode : Lossy
Stream size : 5.55 MiB (6%)
Title : Surround 5.1
Language : English
Service kind : Complete Main
Default : Yes
Forced : No
Original source medium : DVD-Video
Text
ID : 3
ID in the original source medium : 189 (0xBD)32 (0x20)
Format : VobSub
Codec ID : S_VOBSUB
Codec ID/Info : Picture based subtitle format used on DVDs
Duration : 1 min 31 s
Bit rate : 2 493 b/s
Count of elements : 8
Stream size : 27.8 KiB (0%)
Language : German
Default : Yes
Forced : No
Original source medium : DVD-Video